<?xml version="1.0" standalone="no"?> <!DOCTYPE svg PUBLIC "-//W3C//DTD SVG 1.0//EN" "http://www.w3.org/TR/2001/REC-SVG-20010904/DTD/svg10.dtd" > <svg xmlns="http://www.w3.org/2000/svg" width="100%" height="100%">
<defs >
<font id="edwasai" horiz-adv-x="255" ><font-face
    font-family="Edwardian Scr Alt ITC TT"
    units-per-em="1000"
    panose-1="0 0 4 0 0 0 0 0 0 0"
    ascent="848"
    descent="-328"
    alphabetic="0" />
<missing-glyph horiz-adv-x="500" d="M63 0V697H438V0H63ZM125 63H375V635H125V63Z" />
<glyph unicode=" " glyph-name="space" horiz-adv-x="177" />
<glyph unicode="!" glyph-name="exclam" horiz-adv-x="287" d="M441 539Q441 516 329 362Q207 193 167 114Q164 108 160 108Q156 108 156 113Q156 114 162 123Q212 196 324 453Q353 518 372 543T413 568Q441 568 441 539ZM161 57Q161 35 141 15T100 -5Q79 -5 79
17Q79 37 100 57T142 77Q161 77 161 57Z" />
<glyph unicode="&quot;" glyph-name="quotedbl" horiz-adv-x="478" d="M598 620Q598 605 592 590T543 494Q515 439 504 407H496Q503 431 532 561Q549 643 579 643Q598 643 598 620ZM516 619Q516 600 494 558Q438 452 422 407H413Q428 459 449 561Q466 643 497
643Q516 643 516 619Z" />
<glyph unicode="#" glyph-name="numbersign" horiz-adv-x="915" d="M897 256Q897 128 765 41Q655 -31 536 -31Q483 -31 443 -13Q408 -21 380 -21Q304 -21 252 23T187 144Q75 0 6 0Q0 0 0 4Q0 7 11 8Q78 15 185 152Q183 168 183 186Q183 323 299 424T574 526Q709
526 803 448T897 256ZM861 280Q861 388 782 454T572 521Q421 521 305 421T189 190Q189 174 191 160Q384 407 547 407Q614 407 658 363T703 253Q703 171 633 96T455 -11Q489 -25 535 -25Q666 -25 763 66T861 280ZM679 272Q679 331 644 366T548 401Q466 401 372 335T192
151Q203 74 254 30T384 -15Q407 -15 435 -9Q364 33 364 100Q364 135 385 160T437 185Q460 185 475 170T491 130Q491 114 484 114Q480 114 480 118Q480 118 482 124L483 136Q484 154 471 166T437 179Q409 179 390 156T371 100Q371 27 444 -6Q541 20 610 102T679
272Z" />
<glyph unicode="$" glyph-name="dollar" horiz-adv-x="478" d="M602 375Q602 338 568 313T484 288Q419 288 419 335Q419 354 438 377T474 401Q478 401 478 398Q478 396 476 396Q427 374 427 336Q427 297 471 297Q503 297 536 328T569 390Q569 443 495 443Q440
443 394 408T348 329Q348 310 362 294T440 228Q496 184 496 134Q496 70 433 24T283 -22Q272 -22 261 -21L163 -204Q159 -212 154 -212Q149 -212 149 -206Q149 -202 153 -195L251 -19Q136 0 136 82Q136 126 185 164T291 202Q297 202 298 200Q298 197 287 195Q241
186 210 152T179 78Q179 34 206 9T283 -16Q349 -16 397 19T446 103Q446 129 433 145T358 208T296 302Q296 359 355 404T490 450Q501 450 511 449L586 591Q592 602 596 602Q601 602 601 596Q601 594 597 584L522 447Q602 431 602 375Z" />
<glyph unicode="%" glyph-name="percent" horiz-adv-x="1489" d="M1471 256Q1471 128 1339 41Q1229 -31 1110 -31Q1057 -31 1017 -13Q982 -21 954 -21Q851 -21 794 58Q725 9 666 -11T532 -31Q398 -31 304 47T210 239Q210 367 342 454Q451 526 572 526Q623 526
664 509Q697 517 727 517Q829 517 888 436Q1006 526 1148 526Q1283 526 1377 448T1471 256ZM1435 280Q1435 388 1356 454T1146 521Q1008 521 891 431Q914 393 923 340Q1016 408 1116 408Q1186 408 1231 365T1277 253Q1277 171 1206 96T1028 -11Q1062 -25 1110 -25Q1240
-25 1337 66T1435 280ZM1252 273Q1252 332 1217 366T1121 401Q1032 401 925 313Q927 247 893 179T800 63Q854 -15 958 -15Q981 -15 1008 -9Q938 33 938 100Q938 135 959 160T1011 185Q1035 185 1050 170T1065 130Q1065 114 1058 114Q1054 114 1054 117L1055 124Q1057
127 1057 135Q1057 154 1044 166T1011 179Q983 179 964 156T945 100Q945 28 1018 -6Q1115 20 1183 102T1252 273ZM917 337Q908 392 885 427Q830 381 798 319T763 197Q863 295 917 337ZM919 308Q905 297 876 271L811 209Q788 187 764 169Q770 107 796 68Q850 107
886 177T919 308ZM882 432Q827 511 723 511Q702 511 673 505Q743 464 743 395Q743 360 722 335T670 310Q646 310 631 325T616 366Q616 382 623 382Q627 382 627 378L626 372Q624 366 624 360Q624 341 637 329T671 316Q698 316 717 339T737 395Q737 467 663 502Q563
472 496 392T429 223Q429 165 464 130T559 95Q658 95 757 191Q757 256 790 321T882 432ZM791 63Q765 104 759 164Q660 88 564 88Q494 88 449 131T404 243Q404 325 475 400T653 506Q619 520 572 520Q442 520 344 429T246 216Q246 108 325 42T533 -25Q669 -25 791
63Z" />
<glyph unicode="&amp;" glyph-name="ampersand" horiz-adv-x="889" d="M997 223Q997 137 942 77T808 17Q777 17 734 33Q657 -17 565 -17Q488 -17 427 18T338 112Q273 134 236 183T198 296Q198 410 300 488T551 567Q634 567 718 541Q755 584 793 613T852 642Q869
642 869 626Q869 597 771 521Q875 474 936 394T997 223ZM860 626Q860 634 852 634Q836 634 799 605T728 538L732 536L742 533L755 527L761 525Q799 551 829 582T860 626ZM753 519Q737 525 722 530Q703 506 685 477Q711 490 753 519ZM973 243Q973 329 919 400T763
515Q729 490 678 462Q656 419 642 365Q670 370 690 370Q719 370 744 362Q763 400 768 433Q770 447 777 447Q783 447 783 439Q783 417 756 358Q844 320 844 220Q844 114 743 39Q769 29 796 29Q869 29 921 92T973 243ZM741 355Q714 362 690 362Q667 362 640 355Q626
303 626 233Q626 216 627 203Q701 271 741 355ZM827 233Q827 315 752 351Q705 259 628 192Q634 130 674 85Q740 125 741 180Q741 194 751 194Q762 194 762 182Q762 161 737 129T681 79Q688 72 710 55L715 52Q766 90 796 139T827 233ZM712 534Q643 556 574 556Q437
556 332 471T227 274Q227 169 332 125Q321 155 321 185Q321 302 469 386Q508 408 669 469Q685 497 712 534ZM660 452Q643 443 608 426Q365 303 365 147Q365 133 369 114Q399 111 409 111Q441 111 480 121Q465 150 465 177Q465 235 509 285T622 359Q633 397 660
452ZM619 348Q561 322 525 274T489 173Q489 151 498 127Q558 146 607 186Q601 216 601 239Q601 287 619 348ZM664 80Q622 126 609 177Q559 139 503 118Q532 66 605 66Q633 66 664 80ZM707 46Q682 62 671 74Q633 57 598 57Q528 57 486 113Q444 101 410 101Q395 101
372 104Q391 55 442 25T555 -6Q630 -6 707 46Z" />
<glyph unicode="&apos;" glyph-name="quotesingle" horiz-adv-x="321" d="M479 619Q479 600 457 558Q401 452 385 407H376Q391 459 412 561Q429 643 460 643Q479 643 479 619Z" />
<glyph unicode="(" glyph-name="parenleft" horiz-adv-x="439" d="M854 704Q854 700 836 697Q637 665 476 476T315 85Q315 -10 375 -69Q378 -72 378 -74Q377 -77 375 -77Q369 -77 344 -48Q275 31 275 153Q275 289 365 425T593 632Q643 658 726 683T847 708Q854
708 854 704Z" />
<glyph unicode=")" glyph-name="parenright" horiz-adv-x="439" d="M462 497Q462 392 438 316T356 166Q290 81 209 28T10 -60Q-74 -85 -92 -85Q-97 -85 -97 -81Q-97 -77 -85 -75Q107 -39 264 152T422 542Q422 642 363 696Q359 699 359 702Q359 705 363 705Q367
705 382 690Q462 612 462 497Z" />
<glyph unicode="*" glyph-name="asterisk" horiz-adv-x="712" d="M875 342Q875 238 804 144T633 23Q661 2 698 2Q773 2 821 70Q823 75 827 75Q830 74 830 71Q830 63 802 38Q754 -5 698 -5Q656 -5 623 21Q604 18 593 18Q554 18 510 40Q436 -4 351 -4Q271 -4 215
45T158 164Q158 254 250 326Q297 363 462 436Q466 438 509 458Q662 672 746 672Q772 672 772 647Q772 607 711 559T545 467Q477 342 477 214Q477 112 528 58Q557 78 576 94Q564 133 564 174Q564 270 620 359T747 465Q749 481 751 519Q752 526 755 526Q758 526 758
518Q758 501 755 471V466Q762 467 771 467Q817 467 846 432T875 342ZM765 648Q765 665 745 665Q707 665 650 610T550 475Q765 586 765 648ZM850 340Q850 394 827 427T767 460Q759 460 754 459Q741 330 703 249T584 92Q597 54 626 28Q714 45 782 139T850 340ZM747
458Q676 437 626 349T576 156Q576 129 582 100Q724 241 747 458ZM618 26Q593 50 578 87Q558 70 533 53Q566 26 606 26H618ZM503 44Q413 94 413 205Q413 309 503 448Q363 380 288 296T213 123Q213 67 250 35T352 3Q433 3 503 44Z" />
<glyph unicode="+" glyph-name="plus" horiz-adv-x="100" d="M196 158Q196 157 194 155L189 146Q159 103 101 37T34 -30Q31 -29 31 -28Q32 -25 34 -24Q77 18 189 158L193 163L194 161Q195 159 196 158Z" />
<glyph unicode="," glyph-name="comma" horiz-adv-x="223" d="M151 59Q151 26 115 -13Q101 -28 79 -42T47 -57Q44 -57 44 -54Q44 -51 48 -50Q68 -43 84 -30T101 -6Q101 -3 96 -3Q74 -3 74 18Q74 37 94 58T131 80Q151 80 151 59Z" />
<glyph unicode="-" glyph-name="hyphen" horiz-adv-x="358" d="M358 133Q358 127 318 115T257 102Q237 102 216 107Q191 113 178 113Q158 113 139 103Q138 102 136 102Q134 102 134 104Q134 110 172 123T227 136Q237 136 269 129Q296 123 308 123Q331 123 351
133Q354 135 356 135Q358 135 358 133Z" />
<glyph unicode="." glyph-name="period" horiz-adv-x="223" d="M170 57Q170 35 150 15T109 -5Q88 -5 88 17Q88 37 109 57T151 77Q170 77 170 57Z" />
<glyph unicode="/" glyph-name="slash" horiz-adv-x="529" d="M710 726L185 -101H170L695 726H710Z" />
<glyph unicode="0" glyph-name="zero" horiz-adv-x="478" d="M631 386Q631 275 519 148Q383 -6 267 -6Q209 -6 172 36T134 143Q134 274 295 410Q434 527 517 527Q569 527 600 489T631 386ZM595 440Q595 520 518 520Q455 520 372 446Q294 375 238 277Q179 172 179
93Q179 1 266 1Q373 1 482 151Q533 221 564 300T595 440Z" />
<glyph unicode="1" glyph-name="one" horiz-adv-x="478" d="M610 507Q610 502 499 331Q410 194 376 129T325 -3Q308 1 295 1Q281 1 242 -5Q275 92 445 297Q549 422 583 476Q456 326 328 228Q245 165 229 165Q225 165 225 168Q225 171 231 174Q355 230 591 492L597
499Q606 509 608 509Q610 509 610 507Z" />
<glyph unicode="2" glyph-name="two" horiz-adv-x="478" d="M632 415Q632 348 576 295Q536 257 494 235T326 162Q170 99 111 28Q155 62 206 62Q247 62 314 41Q372 23 402 23Q443 23 478 56T527 142Q528 148 532 148Q534 148 534 146Q534 118 501 72Q440 -13 349
-13Q315 -13 249 7Q169 31 148 31Q97 31 92 -10Q91 -21 85 -21Q81 -21 81 -17Q81 6 120 46Q154 81 189 103T323 171Q446 229 515 303T585 452Q585 483 562 501T501 519Q415 519 315 431T215 267Q215 212 281 212Q333 212 398 263T487 375Q488 380 491 380Q494 380
494 377Q494 356 452 306Q415 263 368 235T282 207Q245 207 222 229T199 289Q199 380 320 460Q419 525 503 525Q560 525 596 495T632 415Z" />
<glyph unicode="3" glyph-name="three" horiz-adv-x="478" d="M603 438Q603 322 402 287Q520 260 520 167Q520 97 440 44T253 -10Q186 -10 143 17T100 86Q100 130 142 160T246 191Q292 191 292 185Q292 182 289 182H285Q267 185 255 185Q202 185 165 155T128 80Q128
44 157 21T232 -2Q321 -2 396 61T471 201Q471 264 394 284Q352 278 325 278Q300 278 300 284Q300 294 336 294Q364 294 394 289Q468 314 512 361T556 463Q556 525 477 525Q409 525 341 478T272 383Q272 339 328 339Q362 339 404 366T471 430Q473 435 477 435Q479
435 479 433Q479 428 461 408T426 374Q374 333 326 333Q298 333 280 350T261 393Q261 443 330 487T478 531Q535 531 569 506T603 438Z" />
<glyph unicode="4" glyph-name="four" horiz-adv-x="478" d="M782 570Q782 566 778 566Q777 566 773 567Q750 575 729 575Q602 575 403 369Q305 268 259 229T152 158Q209 173 303 173Q338 173 361 171Q388 212 477 335Q554 441 573 481Q576 487 579 487Q581 487
581 485Q581 484 580 482L575 472Q569 460 506 347T412 168Q442 166 468 166Q519 166 551 188T583 246Q583 259 576 274Q575 276 575 279Q575 282 578 282Q589 282 589 246Q589 148 402 148Q359 55 350 -2Q332 4 314 4Q291 4 265 -2Q291 68 346 148Q335 148 294
152Q237 158 209 158Q182 158 149 154Q91 117 56 117Q48 117 48 122Q48 139 142 158Q209 198 254 237Q297 273 398 377Q601 585 729 585Q747 585 764 580T782 570Z" />
<glyph unicode="5" glyph-name="five" horiz-adv-x="478" d="M638 537Q638 506 610 483T546 459Q519 459 480 473T419 487Q391 487 378 453Q350 378 306 318Q347 337 388 337Q454 337 498 300T542 206Q542 123 450 57T242 -9Q181 -9 143 18T104 90Q104 140 153
174T277 208Q319 208 319 202Q318 200 316 200Q310 200 299 201T281 202Q216 202 174 169T132 82Q132 43 159 21T234 -2Q323 -2 407 72T492 226Q492 273 461 300T377 328Q342 328 300 312Q248 246 229 246Q223 246 223 251Q223 270 295 312Q381 427 381 510Q381
519 380 522T379 528Q379 534 385 534Q391 534 391 518Q391 504 385 478Q413 526 458 526Q476 526 552 500Q578 491 593 491Q608 491 619 502T631 528Q631 532 629 537T627 544Q627 550 632 550Q638 550 638 537Z" />
<glyph unicode="6" glyph-name="six" horiz-adv-x="478" d="M647 571Q647 566 637 566H628Q541 566 413 442T222 173Q271 252 336 300T459 349Q508 349 538 319T569 241Q569 155 474 73T279 -10Q224 -10 192 25T159 120Q159 208 232 305T436 489Q489 524 549 550T638
576Q647 576 647 571ZM527 277Q527 343 454 343Q377 343 289 252T201 80Q201 42 220 19T271 -4Q347 -4 437 95T527 277Z" />
<glyph unicode="7" glyph-name="seven" horiz-adv-x="478" d="M640 549Q640 527 616 487Q597 455 578 434Q555 409 477 332Q281 140 273 -2Q250 3 228 3Q208 3 190 -2Q207 93 277 178T507 384Q592 448 619 505Q584 453 513 453Q477 453 417 475T340 497Q325 497
311 489L308 483Q270 407 253 407Q247 407 247 413Q247 438 304 489Q315 511 315 527Q315 533 312 543V545Q312 551 318 551Q324 551 324 541Q324 523 313 496Q352 528 392 528Q416 528 490 503Q532 489 559 489Q627 489 627 537Q627 541 626 546V549Q626 557 633
557Q640 557 640 549Z" />
<glyph unicode="8" glyph-name="eight" horiz-adv-x="478" d="M648 454Q648 368 441 307Q487 264 502 238T518 178Q518 105 444 48T276 -10Q209 -10 167 20T125 101Q125 160 183 204T381 295Q332 343 332 385Q332 442 395 489T535 536Q583 536 615 513T648 454ZM615
469Q615 495 592 512T535 530Q473 530 426 494T379 411Q379 384 399 356Q407 345 438 311Q519 339 567 382T615 469ZM468 147Q468 188 441 226Q434 237 384 291Q163 210 163 84Q163 -4 275 -4Q354 -4 411 40T468 147Z" />
<glyph unicode="9" glyph-name="nine" horiz-adv-x="478" d="M612 400Q612 317 537 221T334 43Q277 7 214 -18T117 -44Q109 -44 109 -39Q109 -32 121 -32H128Q217 -32 348 86T543 340Q495 269 425 222T297 175Q250 175 222 203T194 280Q194 367 294 445Q342 483
399 507T497 531Q548 531 580 495T612 400ZM570 442Q570 525 498 525Q423 525 329 425T235 245Q235 182 302 182Q346 182 407 218T512 307Q570 376 570 442Z" />
<glyph unicode=":" glyph-name="colon" horiz-adv-x="223" d="M258 200Q258 178 238 158T197 138Q176 138 176 160Q176 180 196 200T239 220Q258 220 258 200ZM170 57Q170 35 150 15T109 -5Q88 -5 88 17Q88 37 109 57T151 77Q170 77 170 57Z" />
<glyph unicode=";" glyph-name="semicolon" horiz-adv-x="223" d="M248 204Q248 182 228 162T187 142Q166 142 166 163Q166 184 186 204T229 224Q248 224 248 204ZM152 59Q152 26 116 -13Q102 -28 80 -42T48 -57Q45 -57 45 -54Q45 -51 49 -50Q69 -43 85 -30T102
-6Q102 -3 97 -3Q75 -3 75 18Q75 37 95 58T132 80Q152 80 152 59Z" />
<glyph unicode="&lt;" glyph-name="less" horiz-adv-x="523" d="M614 137L181 323V344L614 530V509L204 333L614 158V137Z" />
<glyph unicode="=" glyph-name="equal" horiz-adv-x="108" d="M241 226Q241 213 186 141T80 15Q69 4 59 -7Q43 -24 37 -24Q34 -23 34 -22Q34 -20 41 -14Q79 19 143 98T240 231Q241 228 241 226Z" />
<glyph unicode="&gt;" glyph-name="greater" horiz-adv-x="523" d="M661 323L228 137V158L638 333L228 509V530L661 344V323Z" />
<glyph unicode="?" glyph-name="question" horiz-adv-x="436" d="M612 444Q612 367 519 309Q485 288 355 238Q221 187 221 132Q221 107 247 107Q291 107 330 164Q332 167 334 167Q336 166 336 164Q336 156 308 130Q275 100 247 100Q214 100 214 131Q214 157 245
185Q260 198 273 206Q291 218 356 254Q562 369 562 479Q562 559 466 570Q470 551 470 533Q470 447 401 369T256 290Q224 290 203 311T181 363Q181 443 267 509T457 575Q432 635 374 635Q354 635 336 628Q332 626 331 626Q328 627 328 629Q328 633 344 637T374 642Q437
642 464 575Q529 571 570 534T612 444ZM233 57Q233 35 213 15T172 -5Q151 -5 151 17Q151 37 172 57T214 77Q233 77 233 57ZM464 533Q464 551 459 570Q361 570 275 489Q196 415 196 350Q196 297 255 297Q325 297 394 376T464 533Z" />
<glyph unicode="@" glyph-name="at" horiz-adv-x="813" d="M795 256Q795 128 663 41Q553 -31 434 -31Q381 -31 341 -13Q306 -21 278 -21Q190 -21 136 37T81 187Q81 324 198 425T472 526Q607 526 701 448T795 256ZM759 280Q759 388 680 454T470 521Q318 521 203
421T87 187Q87 171 89 160Q282 407 445 407Q511 407 556 363T601 253Q601 171 530 96T352 -11Q387 -25 433 -25Q564 -25 661 66T759 280ZM576 273Q576 331 541 366T446 401Q364 401 268 334T90 151Q101 74 152 30T282 -15Q305 -15 332 -9Q262 32 262 100Q262 135
283 160T335 185Q358 185 373 170T389 130Q389 114 382 114Q378 114 378 117L379 124Q381 128 381 136Q381 154 368 166T334 179Q307 179 288 156T268 100Q268 29 342 -6Q439 20 507 102T576 273Z" />
<glyph unicode="A" glyph-name="A" horiz-adv-x="908" d="M872 496Q872 491 854 470Q804 413 760 413Q731 413 714 433T696 485Q696 512 728 573Q743 601 743 620Q743 645 716 662T650 679Q538 679 443 593T347 407Q347 357 379 325T462 292Q517 292 573 332T652
429Q653 434 656 434Q660 434 660 429Q660 419 643 393T608 349Q542 284 460 284Q405 284 371 318T337 409Q337 512 436 600T652 688Q703 688 732 663T761 593Q761 559 738 514Q717 473 717 458Q717 422 760 422Q809 422 861 494Q865 500 868 500Q872 500 872 496ZM1395
585Q1395 576 1385 576Q1380 576 1352 582Q1300 593 1265 593Q1186 569 1126 500T989 277Q871 40 686 -3Q724 -9 753 -9Q843 -9 904 49Q963 104 1002 167Q1006 174 1009 174Q1012 174 1012 172Q1012 164 956 96Q904 32 861 8T756 -16Q720 -16 669 -6Q638 -16 597
-16Q569 -16 569 -6Q569 6 607 6Q634 6 669 1Q745 19 783 60T933 285H745Q626 159 560 106Q407 -18 272 -18Q195 -18 141 18T87 106Q87 133 103 152T143 171Q175 171 175 140Q175 124 164 113T138 101Q115 101 115 123L116 133Q117 135 117 138Q117 143 113 143Q108
143 103 131T98 106Q98 58 148 25T272 -8Q377 -8 503 95Q532 118 567 156Q637 229 678 270L693 285H598L604 294Q651 294 700 293Q843 452 977 525T1262 600Q1297 607 1327 607Q1395 607 1395 585ZM1240 591Q1113 584 1004 518T753 293H938Q1001 402 1088 488T1240
591Z" />
<glyph unicode="B" glyph-name="B" horiz-adv-x="929" d="M1215 508Q1215 482 1208 452T1195 422Q1190 422 1190 427Q1190 428 1191 431Q1204 465 1204 505Q1204 566 1168 603T1071 641Q990 641 905 588Q973 537 973 469Q973 360 825 340Q947 297 947 184Q947
100 876 37T708 -26Q662 -26 635 -2T608 62Q608 124 665 185T781 247Q813 247 833 227T854 175Q854 156 843 128T823 99Q818 99 818 103Q818 105 820 109Q845 146 845 176Q845 204 827 221T780 238Q725 238 672 180T619 61Q619 29 641 8T696 -14Q770 -14 832 58T895
218Q895 299 817 337L789 333Q777 332 765 332Q728 332 728 344Q728 353 759 353Q781 353 817 344Q868 360 897 399T927 489Q927 538 889 577Q782 495 688 299Q630 178 583 125T448 29Q346 -21 266 -21Q201 -21 158 9T114 84Q114 109 129 127T164 145Q194 145 194
112Q194 95 184 84T159 72Q134 72 135 98Q135 108 133 109Q125 109 125 83Q125 42 164 16T265 -11Q372 -11 459 68Q497 102 524 139T652 329Q700 402 768 477T882 584Q805 649 658 649Q452 649 300 500Q175 378 175 270Q175 215 210 183T305 151Q403 151 508 245T613
428Q613 499 540 499Q467 499 384 418T301 266Q301 249 312 236T340 223Q348 222 348 219Q348 215 339 215Q316 215 300 236T283 288Q283 364 366 436T538 508Q622 508 622 430Q622 336 515 239T304 142Q236 142 196 183T155 292Q155 430 311 544T656 658Q798 658
897 594Q986 650 1070 650Q1135 650 1175 611T1215 508Z" />
<glyph unicode="C" glyph-name="C" horiz-adv-x="797" d="M936 542Q936 510 892 476Q932 417 932 367Q932 355 925 355Q919 355 919 371Q919 420 885 470Q814 418 692 380T476 341Q463 341 453 342Q375 233 375 132Q375 63 417 23T534 -17Q673 -17 782 116Q848
197 848 269Q848 307 825 329T764 352Q703 352 633 288T563 168Q563 163 566 163Q568 163 570 165Q583 177 594 177Q619 177 619 150Q619 114 584 114Q552 114 552 153Q552 223 622 291T766 360Q860 360 860 257Q860 150 758 63T532 -25Q446 -25 387 33T328 177Q328
260 386 347Q175 386 175 514Q175 590 253 641T449 693Q613 693 780 584Q809 590 839 590Q936 590 936 542ZM928 542Q928 582 850 582Q826 582 792 575Q850 535 888 482Q928 516 928 542ZM881 477Q843 531 780 573Q688 548 601 488T459 349Q561 349 684 386T881
477ZM766 582Q618 668 450 668Q347 668 270 619T192 505Q192 388 390 354Q513 525 766 582Z" />
<glyph unicode="D" glyph-name="D" horiz-adv-x="847" d="M1254 502Q1254 477 1248 450T1237 422Q1234 422 1234 425Q1234 428 1235 431Q1246 461 1246 501Q1246 563 1209 600T1110 637Q991 637 881 525Q923 447 923 360Q923 200 800 89T500 -23Q445 -23 350 -8Q267
-23 192 -23Q63 -23 63 3Q63 16 94 25T168 35Q219 35 370 2Q472 29 530 86T706 331Q778 445 863 526Q791 646 632 646Q467 646 329 516Q260 451 219 372T177 226Q177 173 210 142T299 110Q392 110 492 210T593 404Q593 439 574 460T522 482Q486 482 486 470Q486
467 491 467Q494 467 496 468H503Q527 468 527 446Q527 430 515 418T486 406Q456 406 456 438Q456 460 475 475T523 491Q559 491 581 468T603 406Q603 307 500 204T299 101Q231 101 187 146T143 262Q143 414 293 534T632 655Q793 655 874 536Q993 646 1116 646Q1178
646 1216 606T1254 502ZM896 396Q896 458 870 513Q804 438 752 324Q683 174 608 107T386 -2Q448 -15 518 -15Q705 -15 821 166Q896 283 896 396ZM333 -5Q198 14 132 14Q73 14 73 3Q73 -14 201 -14Q275 -14 333 -5Z" />
<glyph unicode="E" glyph-name="E" horiz-adv-x="841" d="M1037 547Q1037 514 977 514Q930 514 752 558Q669 511 669 439Q669 405 693 391Q728 394 745 394Q796 394 796 382Q796 374 769 374Q735 374 695 384Q640 376 569 342Q386 254 386 115Q386 23 486 -2Q468
28 468 67Q468 163 566 244T781 325Q834 325 866 299T898 228Q898 133 794 57T558 -20Q532 -20 509 -17Q556 -80 648 -80Q705 -80 741 -63L747 -62Q750 -63 750 -66Q750 -73 714 -80T648 -88Q546 -88 492 -14Q418 3 376 42T333 135Q333 205 391 267T548 361Q607
380 683 389Q629 412 629 462Q629 526 708 569Q595 596 521 596Q376 596 275 524T173 349Q173 303 199 271T264 238Q290 238 290 246Q290 251 281 249Q255 249 255 273Q255 287 266 296T294 306Q325 306 325 276Q325 256 308 242T264 228Q219 228 187 268T155 367Q155
454 230 526Q319 612 481 612Q571 612 720 575Q788 608 877 608Q943 608 990 590T1037 547ZM1027 548Q1027 567 987 581T894 596Q822 596 763 565Q893 523 981 523Q1027 523 1027 548ZM889 232Q889 267 862 290T791 313Q686 313 586 226T486 48Q486 22 502 -6Q530
-11 554 -11Q669 -11 779 69T889 232Z" />
<glyph unicode="F" glyph-name="F" horiz-adv-x="660" d="M1240 570Q1240 546 1192 529T1077 512Q989 512 862 539Q800 510 748 450T635 278Q665 273 685 270Q712 333 763 333Q798 333 798 306Q798 285 775 272T714 258H704Q703 256 692 232Q679 204 657 184T614
164Q607 164 607 167Q607 170 612 171Q646 181 680 261Q666 263 639 267L630 269Q623 257 610 233Q568 158 542 126T471 62Q353 -21 227 -21Q153 -21 106 10T58 90Q58 114 72 131T107 149Q139 149 139 116Q139 101 129 90T105 79Q81 79 81 102Q83 114 78 114Q69
114 69 88Q69 47 111 18T215 -11Q310 -11 386 46T553 242Q561 254 576 277H567Q512 277 491 235Q489 228 486 228Q482 228 482 232Q482 251 509 268T568 286H582Q710 480 850 542Q790 558 671 585Q618 595 569 595Q554 595 541 594Q562 554 562 503Q562 396 479
302T301 208Q261 208 236 233T211 299Q211 391 307 485T521 605Q484 660 407 660Q282 660 180 538Q172 530 171 530Q168 530 167 533Q167 542 208 580Q303 668 404 668Q494 668 534 607Q586 620 655 620Q698 620 735 614T911 573Q1020 615 1115 615Q1171 615 1205
603T1240 570ZM1231 569Q1231 584 1199 595T1122 606Q1016 606 927 569L992 554Q1074 535 1143 535Q1178 535 1204 545T1231 569ZM789 305Q789 326 765 326Q733 326 711 276L707 267H719Q750 267 769 277T789 305ZM544 526Q544 558 528 592Q416 578 318 485T219
300Q219 265 241 242T295 218Q380 218 462 320T544 526Z" />
<glyph unicode="G" glyph-name="G" horiz-adv-x="734" d="M911 452Q911 440 873 396T797 318Q762 262 746 226T706 111Q676 15 633 -41T510 -141Q397 -204 278 -204Q177 -204 115 -149T53 -6Q53 70 100 138T228 248T379 290Q385 290 389 289Q389 301 396 332Q387
331 375 331Q296 331 250 365T203 458Q203 558 316 635T575 712Q691 712 765 654Q817 673 841 673Q888 673 888 634Q888 598 833 544Q837 517 837 499Q837 446 806 386Q797 368 793 368Q790 368 790 371Q790 373 792 376Q828 435 828 501Q828 521 826 538Q744 466
644 413T453 339Q438 313 429 286Q558 264 558 146V136Q655 163 797 329Q829 379 862 417T907 455Q910 455 911 452ZM879 633Q879 665 842 665Q813 665 774 646Q816 610 831 553Q879 599 879 633ZM824 547Q811 605 766 643Q679 599 593 517T458 348Q545 368 644
422T824 547ZM756 651Q691 702 577 702Q440 702 326 626T212 459Q212 403 257 372T382 340H399Q456 527 756 651ZM550 134Q553 192 521 229T428 278Q421 253 421 228Q421 185 449 159T523 132Q537 132 550 134ZM780 298Q648 152 556 127Q546 60 494 5T386 -50Q358
-50 339 -33T319 11Q319 38 337 59T378 81Q412 81 412 50Q412 36 401 25T376 13Q350 13 350 36Q350 40 352 47Q353 51 353 54Q353 57 350 57Q343 57 336 42T328 11Q328 -12 344 -27T386 -42Q436 -42 488 12T548 125Q537 123 523 123Q461 123 425 165T388 280Q265
272 173 178T81 -35Q81 -106 133 -150T271 -194Q386 -194 480 -113T699 177Q737 241 780 298Z" />
<glyph unicode="H" glyph-name="H" horiz-adv-x="863" d="M1365 525Q1365 447 1271 394Q1230 371 1215 371Q1211 371 1211 375Q1211 378 1225 383Q1280 404 1314 444T1349 526Q1349 565 1322 589T1252 614Q1112 614 1002 453Q983 425 886 239Q781 38 639 -8Q682
-13 706 -13Q795 -13 857 45Q911 95 954 161Q960 168 962 168Q964 168 964 166Q964 161 918 102Q864 32 819 6T708 -20Q668 -20 620 -13Q584 -23 554 -23Q529 -23 529 -12Q529 0 569 0Q591 0 625 -6Q689 22 724 65T831 252L839 268H649Q603 183 570 142T479 62Q355
-23 239 -23Q171 -23 129 5T87 80Q87 104 101 121T136 139Q168 139 168 107Q168 91 158 80T134 69Q111 69 111 92Q113 104 108 104Q99 104 99 78Q99 38 136 13T233 -13Q336 -13 413 48T589 268H439L443 278H595Q601 287 615 309Q718 475 808 541Q827 555 858 571T898
588Q901 587 901 584Q901 581 891 577Q831 553 784 494T654 278H844Q936 441 1043 531T1252 622Q1302 622 1333 595T1365 525ZM732 513Q732 503 703 472Q660 426 621 426Q593 426 575 445T556 494Q556 521 576 561Q601 611 601 630Q601 655 578 670T516 685Q407
685 312 598T216 410Q216 359 247 327T328 294Q424 294 490 383Q491 386 493 386Q497 386 497 382Q497 372 466 344Q401 286 326 286Q273 286 240 320T207 409Q207 515 305 604T519 693Q621 693 621 603Q621 572 600 529T579 472Q579 435 619 435Q672 435 725 515Q726
517 728 517Q732 517 732 513Z" />
<glyph unicode="I" glyph-name="I" horiz-adv-x="638" d="M1017 646Q1017 638 977 620T885 588Q763 501 644 278L636 263Q642 262 650 262Q709 262 759 298T821 387Q823 395 826 395Q829 395 829 391Q829 361 797 323Q739 254 648 254Q639 254 631 255L617 228Q582
160 556 128T485 64Q362 -23 234 -23Q162 -23 116 7T69 85Q69 110 83 128T118 146Q150 146 150 113Q150 97 140 86T114 74Q91 74 91 96V106Q91 110 88 111Q79 111 79 86Q79 44 120 16T222 -13Q369 -13 487 134Q522 177 580 268Q497 304 497 385Q497 482 607 530Q663
554 782 574L836 583L882 593Q908 613 950 632T1009 651Q1017 651 1017 646ZM871 584Q842 577 784 563Q665 535 595 480T524 361Q524 300 584 274Q713 481 870 584H871Z" />
<glyph unicode="J" glyph-name="J" horiz-adv-x="563" d="M939 677Q939 669 899 651T811 620Q727 550 669 468T541 234H553Q636 234 692 295Q720 325 731 375Q733 383 737 383Q741 383 741 378Q741 323 681 275T554 226Q544 226 537 227Q534 221 508 167Q447 43
405 -11T297 -107Q191 -174 80 -174Q16 -174 -25 -145T-66 -72Q-66 -47 -52 -30T-18 -13Q14 -13 14 -46Q14 -85 -21 -85Q-47 -85 -48 -53Q-48 -52 -49 -50Q-57 -50 -57 -73Q-57 -112 -18 -138T79 -164Q204 -164 295 -62Q330 -22 363 34Q417 129 470 223L478 237Q429
252 400 290T370 378Q370 466 443 525Q486 560 529 573T687 601Q737 607 806 624Q897 682 932 682Q939 682 939 677ZM797 616Q764 608 707 595Q615 575 568 555T480 501Q396 429 396 350Q396 273 482 244Q629 509 797 616Z" />
<glyph unicode="K" glyph-name="K" horiz-adv-x="881" d="M1375 541Q1375 455 1263 401Q1232 386 1222 386Q1218 386 1218 389Q1218 393 1222 394Q1281 411 1320 452T1360 540Q1360 579 1333 603T1260 628Q1202 628 1149 595T1018 479Q885 335 765 323Q810 298
810 233Q810 203 786 111Q775 69 775 50Q775 15 797 -7T853 -30Q883 -30 907 -11Q913 -6 915 -6Q918 -6 918 -9Q918 -18 894 -28T850 -39Q802 -39 768 1T733 98Q733 134 761 215Q775 255 775 278Q775 305 756 323Q738 321 726 321Q690 321 690 330Q690 337 710
337Q730 337 754 328Q804 337 844 365T961 470Q1050 560 1120 599T1262 638Q1311 638 1343 611T1375 541ZM733 513Q733 502 704 472Q660 426 621 426Q593 426 575 445T556 494Q556 520 577 561Q602 610 602 630Q602 655 578 670T516 685Q408 685 312 598T216 410Q216
359 247 327T328 294Q372 294 418 319T491 384Q493 386 494 386Q498 386 498 382Q498 372 467 344Q402 286 327 286Q274 286 241 320T207 409Q207 515 305 604T520 693Q622 693 622 603Q622 572 590 508Q579 486 579 472Q579 435 619 435Q649 435 681 462Q707 484
725 514Q727 517 729 517Q733 517 733 513ZM902 584Q902 581 892 577Q829 551 782 490T643 255Q600 174 560 130T451 44Q339 -24 240 -24Q172 -24 130 4T87 78Q87 104 101 121T138 138Q170 138 170 106Q170 90 160 79T135 68Q111 68 111 94Q111 104 107 104Q99
104 99 77Q99 36 137 11T237 -14Q344 -14 432 64Q477 104 506 142T615 309Q718 474 809 541Q827 554 859 571T898 588Q902 588 902 584Z" />
<glyph unicode="L" glyph-name="L" horiz-adv-x="759" d="M1037 617Q1037 582 952 484T786 326Q725 193 660 132T485 41Q679 -11 717 -19T791 -28Q842 -28 883 9Q887 11 888 11Q891 10 891 9Q891 1 865 -17Q817 -50 726 -50Q659 -50 597 -37T408 16Q327 0 240
0Q87 0 87 47Q87 91 204 91Q295 91 475 44Q529 65 570 106T676 243Q530 116 404 116Q318 116 267 167T216 304Q216 437 341 555T606 674Q670 674 708 641T747 551Q747 451 654 344T472 237Q435 237 410 260T384 318Q384 344 400 363T439 383Q469 383 469 353Q469
337 458 325T431 312Q407 312 408 334Q409 348 405 348Q394 348 394 318Q394 287 417 267T475 246Q555 246 646 351T738 550Q738 600 704 632T615 665Q486 665 368 536T249 266Q249 200 291 163T407 125Q471 125 533 156T688 265Q765 394 798 442T879 540Q969 635
1017 635Q1037 635 1037 617ZM1029 617Q1029 628 1017 628Q981 628 918 554Q862 488 793 341Q876 409 952 498T1029 617ZM392 21Q221 75 159 75Q95 75 95 47Q95 9 245 9Q326 9 392 21Z" />
<glyph unicode="M" glyph-name="M" horiz-adv-x="978" d="M1269 620Q1269 618 1256 611Q1199 581 1156 524T1056 348Q975 176 912 101T754 -7Q797 -13 821 -13Q896 -13 941 19T1069 162Q1074 169 1077 169Q1079 168 1079 166Q1079 161 1033 103Q977 32 933 6T824
-20Q784 -20 738 -11Q705 -22 671 -22Q645 -22 645 -12Q645 0 681 0Q701 0 734 -5H740Q792 14 828 54T914 190Q1016 384 1076 464Q1133 542 1214 596Q1254 623 1266 623Q1269 623 1269 620ZM1504 488Q1504 469 1500 451T1491 433Q1488 433 1488 436Q1488 439 1492
457T1496 486Q1496 551 1445 596T1318 641Q1197 641 1071 523Q1021 476 986 434T849 257Q700 59 604 10Q561 -12 549 -12Q546 -12 546 -9Q546 -8 556 -1Q604 35 632 95Q659 150 727 356Q785 532 860 608Q863 611 863 613L862 614Q856 614 834 592Q770 528 705 412Q599
220 597 218Q530 111 448 53Q345 -21 240 -21Q173 -21 130 7T87 81Q87 107 101 124T138 141Q170 141 170 110Q170 94 160 83T135 71Q111 71 111 97Q111 107 107 107Q99 107 99 80Q99 40 139 15T241 -11Q369 -11 491 121Q540 174 574 225T711 445Q754 517 808 575T885
634Q888 634 888 631Q888 629 886 627Q841 577 804 439Q750 236 702 145T578 8Q576 8 576 6Q577 6 578 5Q589 5 633 36Q685 73 729 125T891 337Q974 450 1022 502T1130 595Q1222 657 1316 657Q1398 657 1451 609T1504 488ZM730 515Q730 504 702 473Q660 426 621
426Q594 426 576 445T557 494Q557 522 577 561Q602 610 602 630Q602 655 579 670T517 685Q408 685 313 597T217 410Q217 359 248 327T329 294Q373 294 418 319T491 384Q493 386 494 386Q498 386 498 382Q498 372 467 344Q402 286 327 286Q274 286 241 320T208 409Q208
515 306 604T520 693Q568 693 595 669T622 603Q622 573 601 530T580 472Q580 435 620 435Q666 435 723 517Q724 519 726 519Q730 519 730 515Z" />
<glyph unicode="N" glyph-name="N" horiz-adv-x="871" d="M1512 481Q1512 440 1503 440Q1499 440 1499 443Q1499 448 1501 460T1503 478Q1503 545 1455 588T1333 632Q1186 632 1037 441Q990 381 855 154Q816 88 775 37T720 -15Q713 -15 713 -8Q713 2 735 12Q778
32 778 112Q778 127 776 162Q771 249 771 312Q771 417 791 484T859 604Q860 606 861 608L860 609Q845 609 794 546Q766 512 745 476T632 275Q554 134 450 57T233 -20Q169 -20 128 8T87 81Q87 107 101 124T138 141Q170 141 170 110Q170 94 160 83T135 71Q111 71
111 97Q111 107 107 107Q99 107 99 80Q99 40 137 15T235 -11Q348 -11 445 74T667 370Q769 541 830 595Q872 632 884 632Q886 632 886 630Q886 629 880 621Q849 580 841 533T830 334Q826 148 784 68Q783 68 783 66L784 65Q793 65 932 310Q1034 489 1128 569T1332
649Q1410 649 1461 602T1512 481ZM730 515Q730 504 702 473Q660 426 621 426Q594 426 576 445T557 494Q557 522 577 561Q602 610 602 630Q602 655 579 670T517 685Q408 685 313 597T217 410Q217 359 248 327T329 294Q373 294 418 319T491 384Q493 386 494 386Q498
386 498 382Q498 372 467 344Q402 286 327 286Q274 286 241 320T208 409Q208 515 306 604T520 693Q568 693 595 669T622 603Q622 573 601 530T580 472Q580 435 620 435Q666 435 723 517Q724 519 726 519Q730 519 730 515Z" />
<glyph unicode="O" glyph-name="O" horiz-adv-x="793" d="M907 390Q907 316 865 239T751 100T596 3T446 -33Q356 -33 300 28T244 187Q244 277 300 370T450 531Q518 580 602 610T754 640Q822 640 862 608T902 520Q902 498 894 467Q907 428 907 390ZM894 519Q894
569 860 599T768 629Q656 629 541 554Q431 482 361 370Q287 254 287 140Q287 68 329 23T440 -23Q576 -23 714 117T868 412Q851 383 809 343T751 303Q747 303 747 307Q747 310 755 314Q834 358 869 430Q869 491 834 527T737 563Q624 563 505 442T385 206Q385 160
406 132T463 103Q480 103 497 112T514 132Q513 135 512 135Q512 135 508 133Q502 127 489 127Q466 127 466 154Q466 170 477 181T504 193Q535 193 535 158Q535 132 513 113T461 94Q419 94 391 128T363 215Q363 334 487 452T736 571Q789 571 831 546T888 480Q894
500 894 519Z" />
<glyph unicode="P" glyph-name="P" horiz-adv-x="769" d="M1215 508Q1215 482 1208 452T1195 422Q1190 422 1190 427Q1190 428 1191 431Q1204 465 1204 505Q1204 566 1168 603T1071 641Q990 641 904 588Q977 529 977 455Q977 393 927 347T809 300Q783 300 753
310T722 330Q723 333 726 333Q729 333 734 330Q764 313 795 313Q850 313 890 361T930 475Q930 532 889 577Q783 498 688 299Q630 178 583 125T448 29Q346 -21 266 -21Q201 -21 158 9T114 84Q114 109 129 127T164 145Q194 145 194 112Q194 95 184 84T159 72Q134
72 135 98Q135 108 133 109Q125 109 125 83Q125 42 164 16T265 -11Q372 -11 459 68Q497 102 524 138Q553 178 652 328Q701 403 768 477T882 584Q806 649 658 649Q452 649 300 500Q175 378 175 270Q175 215 210 183T305 151Q403 151 508 245T613 428Q613 499 540
499Q467 499 384 418T301 265Q301 248 312 235T340 222Q348 222 348 218Q348 214 339 214Q316 214 300 235T283 287Q283 363 366 435T538 508Q622 508 622 430Q622 336 515 239T304 142Q236 142 196 183T155 292Q155 430 311 544T656 658Q799 658 897 594Q986 650
1070 650Q1135 650 1175 611T1215 508Z" />
<glyph unicode="Q" glyph-name="Q" horiz-adv-x="702" d="M835 450Q835 370 790 288T664 142Q572 69 434 28Q594 -20 638 -31T712 -42Q757 -42 793 -9Q795 -8 797 -7Q800 -8 800 -11Q800 -19 776 -34Q734 -61 655 -61Q581 -61 534 -52Q471 -39 368 4L356 9Q292
-6 216 -6Q76 -6 76 39Q76 77 184 77Q277 77 422 32Q579 82 684 213T789 489Q789 564 750 606T641 648Q498 648 362 514T225 237Q225 177 259 143T355 108Q480 108 578 228Q660 329 660 423Q660 462 640 487T588 513Q572 513 554 504T536 486Q537 484 539 484Q540
484 546 487T560 491Q584 491 584 465Q584 449 573 438T547 426Q516 426 516 459Q516 485 537 503T587 522Q629 522 656 487T683 395Q683 283 582 191T357 99Q279 99 234 145T188 270Q188 434 357 556Q499 658 642 658Q728 658 781 601T835 450ZM342 14Q194 62
142 62Q85 62 85 39Q85 3 217 3Q293 3 342 14Z" />
<glyph unicode="R" glyph-name="R" horiz-adv-x="925" d="M1215 508Q1215 482 1208 452T1195 422Q1190 422 1190 427Q1190 428 1191 431Q1204 465 1204 505Q1204 566 1168 603T1071 641Q989 641 904 588Q976 530 976 463Q976 406 931 366T810 316Q861 287 861
231Q861 194 835 118Q818 69 818 40Q818 11 839 -9T890 -30Q922 -30 949 -9Q956 -5 958 -5Q962 -5 962 -9Q962 -17 935 -28T887 -39Q840 -39 809 -2T777 91Q777 131 812 232Q821 258 821 276Q821 299 802 315Q771 312 766 312Q718 312 718 324Q718 332 742 332Q771
332 800 321Q858 330 895 374T932 480Q932 528 895 572L890 578Q783 498 688 299Q630 178 583 125T448 29Q346 -21 266 -21Q201 -21 158 9T114 84Q114 109 129 127T164 145Q194 145 194 112Q194 95 184 84T159 72Q134 72 135 98Q135 108 133 109Q125 109 125 83Q125
42 164 16T265 -11Q372 -11 459 68Q497 102 524 138Q553 178 652 328Q701 403 768 477T882 584Q806 649 658 649Q452 649 300 500Q175 378 175 270Q175 215 210 183T305 151Q403 151 508 245T613 428Q613 499 540 499Q467 499 384 418T301 265Q301 248 312 235T340
222Q348 222 348 218Q348 214 339 214Q316 214 300 235T283 287Q283 363 366 435T538 508Q622 508 622 430Q622 336 515 239T304 142Q236 142 196 183T155 292Q155 430 311 544T656 658Q799 658 897 594Q986 650 1070 650Q1135 650 1175 611T1215 508Z" />
<glyph unicode="S" glyph-name="S" horiz-adv-x="707" d="M994 638Q994 615 947 571T832 486Q823 458 806 385Q779 270 756 222T680 124Q528 -20 339 -20Q285 -20 243 -2Q220 -47 220 -80Q220 -122 248 -157Q251 -160 251 -164Q251 -168 246 -168Q235 -168 222
-138T209 -81Q209 -43 234 3Q132 56 132 184Q132 267 181 348T318 495Q431 578 541 578Q601 578 636 545T672 453Q672 422 663 389Q735 437 790 470Q825 547 878 602T971 657Q994 657 994 638ZM985 637Q985 649 971 649Q939 649 899 604T836 498Q900 538 942 577T985
637ZM646 367L614 345Q430 218 348 134Q369 123 392 123Q460 123 535 195T646 367ZM784 457Q727 421 659 375Q627 272 546 194T391 115Q369 115 342 127Q287 70 248 7Q288 -11 339 -11Q430 -11 516 41T664 185Q693 228 709 265T763 404Q772 429 784 457ZM663 455Q663
506 631 537T545 569Q414 569 291 432T168 149Q168 53 239 12Q272 67 334 132Q302 159 302 198Q302 227 320 248T365 269Q398 269 398 239Q398 223 386 212T357 200Q333 200 333 223Q333 231 338 239Q340 245 340 246Q340 249 337 249Q329 249 320 232T311 197Q311
165 341 139Q439 243 651 381Q663 424 663 455Z" />
<glyph unicode="T" glyph-name="T" horiz-adv-x="587" d="M1236 599Q1236 573 1183 555T1054 536Q978 536 864 557Q804 526 754 465T647 291T564 142T490 69Q368 -22 236 -22Q165 -22 121 8T76 85Q76 109 90 126T124 143Q156 143 156 110Q156 94 146 83T122 72Q99
72 99 94Q99 106 95 106Q87 106 87 82Q87 42 128 15T228 -12Q359 -12 463 106Q512 161 589 288Q715 494 852 559Q793 572 673 595Q628 602 583 602Q576 602 542 600Q565 557 565 502Q565 395 484 301T309 206Q271 206 247 232T222 298Q222 354 264 421T373 539T521
610Q482 662 411 662Q351 662 290 627T182 532Q175 523 173 523Q170 523 169 526Q169 534 209 574Q305 670 410 670Q492 670 534 613Q594 630 670 630Q709 630 743 625T912 592Q1025 641 1129 641Q1236 641 1236 599ZM1228 598Q1228 612 1201 622T1131 632Q1027
632 928 588Q940 586 993 576Q1071 561 1132 561Q1172 561 1200 572T1228 598ZM546 526Q546 565 528 598Q419 580 325 486T230 299Q230 264 251 240T305 216Q388 216 467 318T546 526Z" />
<glyph unicode="U" glyph-name="U" horiz-adv-x="901" d="M1154 604Q815 139 815 4Q815 -29 836 -50T892 -72Q950 -72 1006 -10Q1010 -5 1013 -5Q1016 -5 1016 -9Q1016 -14 999 -29Q941 -80 892 -80Q845 -80 815 -44T784 47Q784 141 881 294Q875 287 865 273L842
241Q753 118 672 48T537 -22Q502 -22 481 3T459 71Q459 115 482 159T589 311Q675 424 698 468T722 562Q722 609 688 636T594 663Q445 663 307 527T169 244Q169 189 200 156T282 122Q379 122 469 233Q563 349 563 445Q563 526 494 526Q477 526 462 518T447 501Q447
497 451 497Q453 497 458 499T467 501Q492 501 492 477Q492 461 481 450T453 438Q423 438 423 470Q423 496 444 515T496 535Q531 535 551 511T572 445Q572 349 480 231T282 113Q220 113 183 155T146 267Q146 427 314 559Q379 610 455 641T593 672Q667 672 708 632T749
521Q749 460 719 406T571 195Q519 126 503 97T487 41Q487 17 501 2T539 -14Q613 -14 742 133T1078 601Q1104 599 1107 599Q1126 599 1154 604Z" />
<glyph unicode="V" glyph-name="V" horiz-adv-x="749" d="M1506 695Q1506 683 1492 683H1484Q1457 686 1440 686Q1314 686 1143 576Q1061 523 1005 469T797 242Q618 38 527 -28Q479 -63 474 -63Q471 -63 471 -60Q471 -60 482 -45Q568 67 630 220T692 476Q692 641
558 641Q505 641 437 605T311 511Q249 448 213 371T176 226Q176 165 208 130T297 95Q405 95 508 234Q581 333 581 411Q581 446 564 467T517 488Q501 488 485 481T468 465Q468 462 471 462H475Q489 464 490 464Q512 464 512 440Q512 425 501 414T473 403Q443 403
443 434Q443 460 465 478T517 497Q550 497 570 474T590 413Q590 317 494 202T296 87Q231 87 191 132T150 248Q150 384 286 516T561 649Q644 649 695 592T746 441Q746 341 690 231T509 -24Q504 -30 504 -31L505 -32Q513 -32 566 13Q607 48 650 95Q689 137 856 327Q955
439 1030 504T1198 622Q1350 709 1466 709Q1506 709 1506 695Z" />
<glyph unicode="W" glyph-name="W" horiz-adv-x="924" d="M1692 740Q1692 728 1677 728H1670Q1655 730 1632 730Q1520 730 1361 629Q1270 571 1209 510T997 267Q816 48 715 -27Q681 -52 676 -52Q673 -52 673 -50Q673 -50 687 -35Q749 28 815 210Q874 373 908 447T982
572Q991 584 991 585L990 586Q988 586 984 581L979 576L967 561Q935 521 818 367Q633 117 493 7Q418 -52 406 -52Q403 -51 403 -49Q403 -47 409 -42Q505 45 592 220T680 500Q680 571 646 613T551 655Q424 655 300 514T175 229Q175 170 207 133T292 96Q403 96 501
247Q565 345 565 422Q565 458 547 480T500 502Q483 502 466 494T449 476Q449 473 452 473Q454 473 457 474Q469 476 473 476Q495 476 495 451Q495 436 484 425T456 414Q426 414 426 447Q426 472 448 491T500 511Q534 511 554 487T574 422Q574 330 490 215Q397 88
291 88Q230 88 190 135T150 254Q150 321 186 394T284 528Q424 664 553 664Q629 664 680 605T732 458Q732 365 655 232T468 3Q457 -7 457 -8Q457 -10 459 -10Q474 -10 556 75Q672 196 870 456Q927 531 981 590T1049 649Q1052 649 1052 646Q1052 645 1049 641Q1018
600 999 558Q978 509 934 376Q886 230 846 153T744 12Q743 10 742 9Q742 7 744 7Q752 7 814 71Q857 115 1054 354Q1156 477 1236 549T1418 677Q1555 754 1657 754Q1692 754 1692 740Z" />
<glyph unicode="X" glyph-name="X" horiz-adv-x="1004" d="M1298 576Q1298 559 1289 540T1271 521Q1266 521 1266 526Q1266 528 1274 536Q1289 551 1289 575Q1289 604 1266 623T1208 642Q1098 642 923 496Q851 436 770 355L763 348L759 339L754 325Q686 135 686
90Q686 -11 779 -11Q865 -11 963 90T1062 271Q1062 307 1040 328T981 350Q941 350 891 321T801 244Q793 235 790 235Q787 236 787 238Q787 244 811 267Q905 359 984 359Q1023 359 1050 331T1077 261Q1077 168 975 74T772 -20Q715 -20 677 20T639 119Q639 187 680
277Q670 268 640 237Q512 99 415 37T232 -26Q173 -26 135 2T96 74Q96 99 109 115T142 132Q175 132 175 100Q175 85 165 74T142 62Q121 62 119 85Q118 96 114 96Q107 96 107 75Q107 36 140 11T224 -15Q371 -15 640 250Q653 263 687 296Q712 357 737 418Q766 496
766 547Q766 596 738 624T659 653Q529 653 394 537Q254 416 254 289Q254 240 288 210T378 179Q496 179 605 302Q683 390 683 464Q683 494 663 513T612 532Q542 532 462 451T381 298Q381 278 393 264T423 250Q429 250 429 248Q429 244 422 244Q395 244 379 264T362
318Q362 395 443 467T611 540Q647 540 669 519T692 464Q692 368 582 265Q480 170 380 170Q314 170 275 208T235 310Q235 449 394 561Q534 660 657 660Q724 660 765 621T806 517Q806 458 770 367Q775 371 879 475Q965 560 1049 609T1196 658Q1240 658 1269 635T1298
576Z" />
<glyph unicode="Y" glyph-name="Y" horiz-adv-x="931" d="M1208 543Q1208 542 1204 539Q1119 480 1050 380T894 97Q821 -59 696 -152T437 -246Q371 -246 329 -216T286 -137Q286 -109 303 -89T346 -68Q378 -68 378 -98Q378 -114 367 -126T341 -138Q315 -138 315
-114Q315 -110 316 -105T318 -97Q318 -94 316 -94Q309 -94 303 -108T296 -137Q296 -181 335 -209T434 -238Q515 -238 588 -194T708 -90T847 137Q879 196 924 266Q816 136 763 87Q664 -5 602 -5Q564 -5 541 23T517 96Q517 142 543 190T654 345Q762 482 762 569Q762
683 624 683Q470 683 316 543Q252 485 210 406T167 266Q167 208 201 173T292 138Q393 138 486 234Q597 349 597 447Q597 482 578 503T526 524Q455 524 376 436T297 268Q297 217 346 217H348Q353 217 353 214Q353 210 341 210Q314 210 297 232T280 291Q280 374 360
453T525 532Q562 532 584 509T606 447Q606 359 516 253Q411 129 293 129Q227 129 187 173T147 291Q147 437 300 559Q376 620 463 655T624 691Q701 691 745 648T790 529Q790 469 763 412T655 251Q585 161 567 129T548 66Q548 5 606 5Q660 5 735 71T935 295Q1063
457 1192 543L1198 547Q1202 549 1203 549Q1208 549 1208 543Z" />
<glyph unicode="Z" glyph-name="Z" horiz-adv-x="653" d="M995 610Q995 584 923 520Q865 468 802 450Q797 442 764 380Q706 268 632 208T441 120Q523 115 572 77T621 -22Q621 -138 485 -235Q357 -326 245 -326Q182 -326 141 -297T99 -223Q99 -198 113 -181T148
-164Q179 -164 179 -196Q179 -212 169 -224T144 -236Q133 -236 125 -229T117 -212L118 -205V-203Q118 -201 116 -201Q108 -201 108 -225Q108 -264 146 -290T241 -316Q346 -316 457 -217T568 -13Q568 103 430 114Q376 95 339 95Q324 95 324 102Q324 110 350 115T411
121H427Q498 153 555 202T695 356Q743 417 772 449Q707 450 677 481T645 581Q642 665 557 665Q435 665 310 537T184 283Q184 227 216 194T303 160Q398 160 494 262T590 465Q590 500 572 521T522 543Q458 543 385 455T311 291Q311 244 356 238Q362 238 362 234Q362
230 356 230Q328 230 308 254T288 313Q288 392 365 472T518 552Q556 552 577 529T599 464Q599 358 500 254T301 150Q238 150 200 193T161 306Q161 431 292 549Q431 674 564 674Q648 674 684 618Q696 599 699 587T710 520Q719 455 777 456Q924 626 978 626Q995 626
995 610ZM984 607Q984 616 974 616Q952 616 905 572T808 462Q883 485 954 562Q984 595 984 607Z" />
<glyph unicode="[" glyph-name="bracketleft" horiz-adv-x="620" d="M711 153Q711 150 706 145L685 116Q593 -11 549 -11Q526 -11 512 6T497 49Q497 72 506 90T551 161Q592 220 592 238Q592 258 572 258Q508 258 351 -7Q341 -5 324 -5Q304 -5 290 -7L359 103Q427
211 427 236Q427 258 409 258Q382 258 321 181T200 -7Q189 -5 171 -5Q152 -5 138 -7L208 103Q280 216 280 241Q280 258 249 258H194L154 180Q82 39 29 -36T-93 -167Q-187 -245 -268 -245Q-304 -245 -304 -235Q-304 -231 -299 -231Q-295 -231 -293 -232Q-277 -236
-260 -236Q-194 -236 -127 -177Q-86 -141 -55 -91Q-29 -52 65 121L140 258H88L92 265H144Q206 371 282 448T400 526Q422 526 422 503Q422 460 361 394T199 265H258Q311 265 311 215Q311 184 282 136Q370 265 413 265Q433 265 446 249T460 207Q460 179 434 136Q527
265 573 265Q595 265 609 248T623 203Q623 174 599 133Q577 101 556 70Q533 36 533 16Q533 -4 553 -4Q585 -4 679 119L695 140L703 151Q705 156 708 156Q711 156 711 153ZM416 504Q416 520 400 520Q363 520 299 435Q264 388 202 275Q283 330 349 401T416 504Z"
/>
<glyph unicode="\" glyph-name="backslash" horiz-adv-x="355" d="M447 153Q447 148 418 117Q379 76 349 76Q312 76 312 119Q312 136 318 154Q286 126 269 103T200 -7Q174 -5 171 -5Q168 -5 140 -7L220 123Q279 219 279 243Q279 258 258 258H194L154 180Q82 40
28 -35T-93 -167Q-187 -245 -268 -245Q-304 -245 -304 -235Q-304 -231 -299 -231Q-295 -231 -293 -232Q-277 -236 -260 -236Q-194 -236 -127 -177Q-86 -141 -55 -92Q-30 -52 65 121L140 258H88L92 265H145Q207 370 283 448T400 526Q422 526 422 503Q422 460 360
394T199 265H255Q310 265 310 216Q310 177 273 115Q297 143 321 163Q340 206 367 235T416 265Q431 265 431 251Q431 229 332 165L326 160Q318 140 318 123Q318 82 350 82Q387 82 432 145Q442 156 444 156Q447 155 447 153ZM416 504Q416 520 400 520Q362 520 299
435Q261 384 202 275Q281 328 348 400T416 504Z" />
<glyph unicode="]" glyph-name="bracketright" horiz-adv-x="467" d="M558 153Q558 143 487 58Q429 -11 396 -11Q374 -11 359 6T344 48Q344 71 353 89T401 164T440 238Q440 258 419 258Q386 258 327 187T199 -7Q175 -5 170 -5Q153 -5 138 -7L214 114Q281 221 281
239Q281 258 251 258H194L154 180Q81 38 28 -36T-93 -167Q-187 -245 -268 -245Q-304 -245 -304 -235Q-304 -231 -299 -231Q-295 -231 -293 -232Q-277 -236 -260 -236Q-193 -236 -127 -177Q-86 -141 -54 -91Q-29 -50 65 121L140 258H88L92 265H144Q207 372 282 449T399
526Q421 526 421 503Q421 460 359 394T198 265H262Q311 265 311 213Q311 183 274 127Q333 207 363 236T421 265Q442 265 456 248T471 204Q471 181 462 163T404 71Q380 35 380 16Q380 -4 400 -4Q444 -4 550 151Q552 156 555 156Q558 156 558 153ZM416 504Q416 520
400 520Q363 520 299 435Q264 388 202 275Q283 330 349 401T416 504Z" />
<glyph unicode="^" glyph-name="asciicircum" horiz-adv-x="500" d="M661 393H634L454 652L275 393H250L442 667H468L661 393Z" />
<glyph unicode="_" glyph-name="underscore" horiz-adv-x="500" d="M546 -104H46V-83H546V-104Z" />
<glyph unicode="`" glyph-name="grave" horiz-adv-x="500" d="M437 312Q436 310 434 310Q422 310 403 346T372 423L414 452Q406 428 406 405Q406 354 433 318Q437 314 437 312Z" />
<glyph unicode="a" glyph-name="a" horiz-adv-x="344" d="M434 153Q434 143 363 58Q305 -11 272 -11Q250 -11 236 5T221 48Q221 74 237 105Q188 37 162 13T112 -11Q86 -11 69 11T51 67Q51 161 183 233Q241 265 277 265Q307 265 307 236Q307 227 303 214L328 261Q343
258 354 258Q367 258 388 261L302 118Q257 43 257 19Q257 -4 276 -4Q295 -4 338 40T426 151Q428 156 431 156Q434 156 434 153ZM300 234Q300 258 278 258Q233 258 160 170T87 28Q87 -4 115 -4Q149 -4 232 108Q300 200 300 234Z" />
<glyph unicode="b" glyph-name="b" horiz-adv-x="263" d="M353 493L134 147Q185 217 210 241T259 265Q286 265 303 243T321 187Q321 113 227 42Q157 -11 103 -11Q78 -11 62 8T46 58Q46 95 93 170L295 494Q308 490 323 490Q335 490 353 493ZM285 225Q285 258 258
258Q222 258 136 140Q72 52 72 22Q72 -4 97 -4Q141 -4 213 84T285 225Z" />
<glyph unicode="c" glyph-name="c" horiz-adv-x="242" d="M333 153Q333 146 264 71Q189 -11 136 -11Q102 -11 78 15T53 77Q53 118 86 162T176 238Q223 265 253 265Q289 265 289 222Q289 188 267 155T221 121Q199 121 199 143Q199 169 244 191Q279 208 279 236Q279
258 255 258Q215 258 156 178T96 42Q96 -4 139 -4Q171 -4 222 38T322 148Q328 156 331 156Q333 155 333 153Z" />
<glyph unicode="d" glyph-name="d" horiz-adv-x="344" d="M534 494Q351 203 303 122T255 18Q255 -4 275 -4Q319 -4 426 151Q428 156 431 156Q434 156 434 153Q434 151 429 145L408 116Q316 -11 272 -11Q250 -11 236 6T221 49Q221 75 239 110Q154 -11 112 -11Q86
-11 69 11T51 67Q51 148 151 213Q230 265 276 265Q306 265 306 236Q306 222 298 205L472 497Q488 492 504 492Q508 492 534 494ZM299 232Q299 258 275 258Q231 258 159 170T87 29Q87 -4 114 -4Q153 -4 248 132Q299 205 299 232Z" />
<glyph unicode="e" glyph-name="e" horiz-adv-x="246" d="M337 153Q337 151 328 140L307 114Q206 -11 134 -11Q99 -11 76 13T53 75Q53 163 176 230Q240 265 281 265Q298 265 310 255T323 229Q323 194 278 170T124 123Q91 73 91 39Q91 -3 136 -3Q213 -3 325 148Q331
156 335 156Q337 155 337 153ZM296 243Q296 259 279 259Q253 259 211 223T128 130Q198 148 247 181T296 243Z" />
<glyph unicode="f" glyph-name="f" horiz-adv-x="133" d="M422 503Q422 460 361 394T199 265H283L279 258H194L154 180Q80 36 28 -37T-93 -167Q-187 -245 -268 -245Q-304 -245 -304 -235Q-304 -230 -299 -230Q-295 -230 -293 -231Q-276 -236 -260 -236Q-194 -236
-127 -177Q-86 -141 -55 -92Q-30 -53 65 121L140 258H88L92 265H145Q207 371 283 448T400 526Q422 526 422 503ZM416 504Q416 520 400 520Q363 520 299 435Q267 392 203 275Q283 330 349 401T416 504Z" />
<glyph unicode="g" glyph-name="g" horiz-adv-x="335" d="M425 153Q425 145 372 86Q313 21 219 -31L195 -75Q128 -198 48 -263T-91 -328Q-112 -328 -125 -316T-139 -284Q-139 -184 87 -81Q136 -59 150 -51L233 102Q179 30 157 10T111 -11Q85 -11 68 11T50 66Q50
150 160 219Q234 265 276 265Q305 265 305 233Q305 224 301 212L328 261Q342 258 351 258Q364 258 388 261Q385 257 345 188L224 -21Q288 15 326 49T413 146Q421 156 423 156Q425 155 425 153ZM300 233Q300 258 276 258Q232 258 160 170T87 29Q87 -4 115 -4Q144
-4 213 83Q300 193 300 233ZM145 -59Q136 -64 90 -87Q-133 -197 -133 -285Q-133 -300 -122 -310T-93 -321Q-39 -321 12 -266T139 -69Q139 -69 145 -59Z" />
<glyph unicode="h" glyph-name="h" horiz-adv-x="313" d="M403 154Q403 150 398 145L377 116Q285 -11 240 -11Q217 -11 202 5T187 48Q187 82 224 137Q282 223 282 239Q282 258 262 258Q233 258 183 202T48 -9Q33 -6 23 -6Q12 -6 -6 -9L66 121Q81 149 111 203Q127
229 210 371L284 497Q299 494 309 494Q328 494 346 499Q296 417 195 255Q192 250 119 129Q211 265 264 265Q285 265 300 247T315 203Q315 170 272 106Q224 35 224 17Q224 -4 245 -4Q283 -4 371 119L386 140L395 151Q397 156 401 156Q403 156 403 154Z" />
<glyph unicode="i" glyph-name="i" horiz-adv-x="168" d="M251 355Q251 338 237 323T205 308Q183 308 183 330Q183 346 198 361T230 376Q251 376 251 355ZM258 153Q258 151 253 145L232 116Q140 -11 92 -11Q69 -11 54 5T38 46Q38 74 72 132L148 261Q163 258 172
258Q185 258 209 261L98 79Q74 40 74 18Q74 -4 97 -4Q141 -4 250 151Q252 156 255 156Q258 156 258 153Z" />
<glyph unicode="j" glyph-name="j" horiz-adv-x="151" d="M256 354Q256 337 242 323T210 309Q190 309 190 330Q190 346 204 360T235 375Q256 375 256 354ZM242 154Q242 147 187 85T36 -31L11 -74Q-64 -204 -138 -264Q-216 -328 -272 -328Q-322 -328 -322 -282Q-322
-226 -246 -167Q-205 -135 -176 -118Q-131 -93 -39 -53L-32 -50L53 102Q89 164 145 261Q159 258 168 258Q182 258 204 261Q165 198 86 61L41 -21Q104 14 143 49T230 146Q236 156 240 156Q242 156 242 154ZM-36 -59Q-175 -130 -213 -156Q-315 -226 -315 -284Q-315
-300 -303 -310T-274 -321Q-223 -321 -172 -264Q-130 -216 -42 -69Q-42 -69 -36 -59Z" />
<glyph unicode="k" glyph-name="k" horiz-adv-x="301" d="M350 499Q321 451 262 355L178 219Q136 151 107 96Q74 35 54 1L48 -9Q35 -6 22 -6Q11 -6 -10 -9Q1 10 15 34L72 133Q84 155 110 199L289 499Q309 495 319 495Q329 495 350 499ZM392 153Q392 151 387 145L366
116Q274 -11 227 -11Q206 -11 190 3T174 35Q174 51 201 105Q211 125 211 134Q211 145 195 154Q176 146 164 146Q147 146 147 156Q147 164 163 164Q179 164 192 159Q216 170 270 232Q299 265 329 265Q366 265 366 230Q366 207 348 184T310 160Q289 160 289 179Q289
197 321 217Q334 225 334 240Q334 252 319 252Q298 252 266 215Q226 168 200 157Q251 134 251 103Q251 86 227 37Q217 17 217 9Q217 -4 233 -4Q279 -4 383 151Q386 156 389 156Q392 156 392 153Z" />
<glyph unicode="l" glyph-name="l" horiz-adv-x="160" d="M347 499Q142 158 108 98T74 18Q74 -4 93 -4Q134 -4 243 151Q245 156 249 156Q251 155 251 153Q251 150 246 145L225 116Q133 -11 89 -11Q68 -11 55 4T41 45Q41 72 53 97T138 242Q227 389 287 497Q302
493 313 493Q331 493 347 499Z" />
<glyph unicode="m" glyph-name="m" horiz-adv-x="544" d="M634 153Q634 151 629 145L608 116Q516 -11 472 -11Q449 -11 435 6T420 50Q420 72 429 90T474 161Q515 220 515 238Q515 258 495 258Q431 258 274 -7Q264 -5 247 -5Q227 -5 213 -7L282 103Q350 211 350
236Q350 258 332 258Q305 258 244 181T123 -7Q112 -5 94 -5Q75 -5 61 -7L131 103Q203 216 203 243Q203 258 192 258Q168 258 93 153Q88 146 85 146Q83 147 83 149Q83 154 127 209T196 265Q212 265 223 250T234 215Q234 187 205 136Q293 265 336 265Q356 265 369
249T383 207Q383 179 357 136Q450 265 496 265Q517 265 531 247T546 203Q546 180 535 158T480 70Q456 34 456 16Q456 -4 476 -4Q514 -4 602 119L617 140L626 151Q628 156 631 156Q634 156 634 153Z" />
<glyph unicode="n" glyph-name="n" horiz-adv-x="391" d="M482 153Q482 143 411 58Q353 -11 320 -11Q298 -11 283 6T268 48Q268 70 277 88T325 164T364 238Q364 258 343 258Q272 258 123 -7Q99 -5 94 -5Q77 -5 62 -7L138 114Q203 217 203 243Q203 258 191 258Q166
258 93 153Q88 147 86 146Q83 146 83 149Q83 151 85 153L94 165Q169 265 195 265Q211 265 223 250T235 214Q235 183 198 127Q256 206 287 235T344 265Q366 265 380 248T395 204Q395 172 350 104T304 16Q304 -4 324 -4Q368 -4 474 151Q476 156 479 156Q482 156 482
153Z" />
<glyph unicode="o" glyph-name="o" horiz-adv-x="290" d="M380 154Q380 146 351 117Q308 74 272 74Q257 74 245 80Q181 -11 124 -11Q95 -11 74 13T53 71Q53 146 152 216Q221 265 266 265Q308 265 308 220Q308 164 249 85Q259 79 271 79Q293 79 322 99T370 149Q376
156 378 156Q380 156 380 154ZM301 219Q301 259 265 259Q221 259 157 174T93 31Q93 -3 125 -3Q178 -3 240 84Q226 99 226 116Q226 140 245 165T282 191Q290 191 293 181Q301 198 301 219Z" />
<glyph unicode="p" glyph-name="p" horiz-adv-x="265" d="M323 187Q323 107 224 42Q144 -11 98 -11Q67 -11 67 18Q67 27 72 42L-115 -270Q-132 -266 -143 -266Q-159 -266 -175 -272L226 387Q239 383 252 383Q265 383 284 387L139 153Q191 222 215 243T262 265Q288
265 305 243T323 187ZM287 226Q287 258 259 258Q223 258 139 143Q74 54 74 21Q74 -4 97 -4Q142 -4 214 83T287 226Z" />
<glyph unicode="q" glyph-name="q" horiz-adv-x="289" d="M386 262Q340 184 229 3Q170 -96 92 -226Q84 -239 67 -266Q51 -262 36 -262Q20 -262 5 -266L234 101Q232 98 215 76Q150 -11 110 -11Q85 -11 68 11T50 67Q50 145 150 212Q230 265 276 265Q306 265 306
236Q306 226 299 208L328 261Q337 259 351 259Q362 259 386 262ZM299 234Q299 258 277 258Q233 258 160 170T87 28Q87 -4 115 -4Q149 -4 231 106Q299 198 299 234Z" />
<glyph unicode="r" glyph-name="r" horiz-adv-x="278" d="M369 153Q369 149 340 117Q303 76 270 76Q233 76 233 119Q233 133 239 154Q208 127 189 101T122 -7Q96 -5 92 -5Q90 -5 62 -7L142 123Q202 221 202 244Q202 258 191 258Q164 258 92 153Q87 146 84 146Q82
147 82 149Q82 151 84 153L93 165Q168 265 195 265Q234 265 234 215Q234 177 194 115Q219 144 242 163Q261 206 288 235T338 265Q353 265 353 252Q353 229 285 185Q275 178 253 165L247 160Q240 138 240 123Q240 82 271 82Q309 82 354 145Q364 156 366 156Q369
156 369 153Z" />
<glyph unicode="s" glyph-name="s" horiz-adv-x="195" d="M256 343Q256 323 195 265Q192 250 192 239Q192 210 218 149Q231 118 231 97Q231 53 188 21T87 -11Q54 -11 34 8T14 58Q14 95 40 129T94 164Q99 164 103 162L142 210Q160 231 189 268Q197 302 214 326T248
351Q256 351 256 343ZM188 150Q188 164 187 178T186 220Q186 242 188 257Q161 222 109 159Q118 151 118 140Q118 111 71 101Q52 97 38 81T24 46Q24 26 38 13T73 0Q114 0 151 47T188 150Z" />
<glyph unicode="t" glyph-name="t" horiz-adv-x="165" d="M271 265L267 258H203L94 72Q74 38 74 18Q74 -4 97 -4Q142 -4 247 151Q250 156 253 156Q256 156 256 153Q256 151 251 145L230 116Q138 -11 92 -11Q69 -11 54 5T38 47Q38 76 64 120L146 258H96L101 265H150L207
360Q222 356 235 356Q248 356 263 360L207 265H271Z" />
<glyph unicode="u" glyph-name="u" horiz-adv-x="313" d="M404 153Q404 142 333 58Q274 -11 240 -11Q219 -11 204 6T189 48Q189 67 208 101L198 88Q153 30 133 11Q109 -11 89 -11Q67 -11 53 5T38 47Q38 75 60 112L149 261Q166 258 175 258Q184 258 208 261L92
70Q74 40 74 18Q74 -4 93 -4Q142 -4 251 180L299 261Q314 258 324 258Q337 258 359 261L281 134Q225 43 225 17Q225 -4 245 -4Q284 -4 372 119L387 140L396 151Q398 156 401 156Q404 156 404 153Z" />
<glyph unicode="v" glyph-name="v" horiz-adv-x="273" d="M364 154Q364 148 333 116Q291 72 259 72Q237 72 223 95Q180 35 153 12T97 -11Q72 -11 55 6T38 48Q38 77 71 132L148 261Q172 259 180 259Q198 259 209 261L107 96Q73 40 73 19Q73 -4 99 -4Q123 -4 148
18T220 101Q216 116 216 127Q216 171 243 218T296 265Q308 265 308 251Q308 215 227 100Q237 78 259 78Q296 78 349 144Q359 156 362 156Q364 156 364 154Z" />
<glyph unicode="w" glyph-name="w" horiz-adv-x="424" d="M515 154Q515 148 484 116Q442 72 410 72Q389 72 374 95Q331 35 304 12T248 -11Q223 -11 207 5T190 47Q190 67 203 96Q130 -11 88 -11Q67 -11 53 6T38 47Q38 75 67 124L148 261Q168 258 177 258Q185 258
209 261L98 80Q72 38 72 18Q72 -4 92 -4Q114 -4 157 45T244 167L299 261Q325 259 332 259Q349 259 360 261L258 96Q224 41 224 20Q224 -4 249 -4Q299 -4 370 101Q367 119 367 128Q367 172 394 218T447 265Q458 265 458 250Q458 209 378 100Q390 78 410 78Q447 78
500 144Q510 156 513 156Q515 156 515 154Z" />
<glyph unicode="x" glyph-name="x" horiz-adv-x="348" d="M438 153Q438 153 436 149L430 141Q366 56 331 23T265 -11Q236 -11 214 11T192 64Q192 77 199 101Q133 -11 83 -11Q67 -11 57 1T46 30Q46 55 64 76T103 98Q129 98 129 73Q129 45 89 34Q67 28 67 12Q67
-3 85 -3Q121 -3 168 63Q242 167 242 228Q242 258 215 258Q169 258 96 157Q88 146 85 146Q83 147 83 149Q83 158 131 211T218 265Q247 265 266 245T285 195Q285 180 278 162Q345 265 394 265Q431 265 431 225Q431 201 415 181T380 160Q356 160 356 185Q356 209
391 219Q413 226 413 242Q413 258 393 258Q352 258 293 175T233 33Q233 -4 268 -4Q319 -4 425 145Q433 156 435 156Q438 156 438 153Z" />
<glyph unicode="y" glyph-name="y" horiz-adv-x="308" d="M398 153Q398 145 344 86Q285 21 189 -32L165 -75Q94 -202 17 -264Q-63 -328 -121 -328Q-141 -328 -154 -316T-168 -284Q-168 -186 58 -81Q77 -72 114 -55L121 -51L207 102Q156 32 133 11T87 -11Q67 -11
52 6T37 46Q37 74 72 133L147 260Q158 258 173 258Q186 258 208 261L112 105Q71 38 71 18Q71 -4 91 -4Q144 -4 253 183L298 260Q309 258 325 258Q339 258 358 261Q297 165 194 -21Q253 10 294 46T386 147Q393 156 395 156Q398 156 398 153ZM116 -59Q108 -63 61
-87Q-161 -197 -161 -285Q-161 -322 -120 -322Q-68 -322 -17 -266T110 -69Q110 -69 116 -59Z" />
<glyph unicode="z" glyph-name="z" horiz-adv-x="279" d="M384 260Q384 244 339 218Q289 176 170 86Q155 75 129 55L143 56Q166 58 184 41T208 -5Q236 11 285 60T359 147Q365 156 368 156Q370 156 370 154Q370 144 316 84T209 -13V-26Q209 -80 171 -141T75 -241Q-49
-323 -123 -323Q-180 -323 -180 -277Q-180 -223 -102 -164Q-61 -133 108 -59Q141 -44 170 -28Q178 -6 178 13Q178 50 139 50Q128 50 122 49L115 43L97 26Q51 -17 38 -17Q26 -17 26 -6Q26 25 116 53Q252 156 324 214L314 207Q287 188 264 188Q248 188 224 208T185
228Q155 228 94 152Q88 146 86 146Q84 147 84 149Q84 157 129 205Q183 263 221 263Q236 263 286 231Q303 220 317 220Q324 220 332 224L338 232L354 252Q365 266 376 266Q384 266 384 260ZM167 -36Q155 -43 28 -102Q-66 -145 -120 -192T-174 -279Q-174 -317 -124
-317Q-54 -317 37 -229T167 -36Z" />
<glyph unicode="{" glyph-name="braceleft" horiz-adv-x="439" d="M709 702Q709 696 691 695Q611 689 573 645T490 467Q444 326 276 304Q278 304 286 303Q354 298 354 260Q354 223 289 111Q227 4 227 -26Q227 -63 292 -62Q321 -62 321 -65Q321 -74 296 -74Q231
-74 217 -71Q168 -62 168 -24Q168 4 186 45T262 183Q302 251 302 270Q302 298 261 298Q254 298 254 302Q254 307 272 310Q335 319 365 354T438 501Q469 582 501 622T584 684T690 707Q709 707 709 702Z" />
<glyph unicode="|" glyph-name="bar" horiz-adv-x="500" d="M419 -167H400V667H419V-167Z" />
<glyph unicode="}" glyph-name="braceright" horiz-adv-x="439" d="M509 639Q509 615 495 587T406 440Q364 373 364 350Q364 333 379 321T414 310Q425 310 425 305Q425 300 412 298Q363 291 342 271T291 184Q241 73 222 41Q171 -44 109 -64Q77 -74 -10 -74Q-26
-74 -26 -68Q-26 -62 5 -62Q71 -63 107 -29T192 110Q247 231 284 265T403 304Q315 318 315 372Q315 402 359 467Q426 566 441 594T457 645Q457 696 393 695Q381 695 381 699Q381 707 406 707Q509 707 509 639Z" />
<glyph unicode="~" glyph-name="asciitilde" horiz-adv-x="667" d="M799 698Q745 605 675 605Q638 605 537 659Q481 689 446 689Q390 689 341 603L324 614Q379 707 448 707Q487 707 567 663Q640 623 674 623Q732 623 783 708L799 698Z" />
</font>
</defs>
</svg>
